Waveform operation fails

Steps to reproduce

Steps to reproduce:
1. Upload a new event.
2. Use this file for presentation track:
https://media.upv.es/resources/imported/polimedia/6b893202-fb14-474c-86bf-a5571894bf6d/polimedia/polimedia_muxed-576.mp4

Actual Results:
The second waveform operation fails!

Expected Results:
The waveform operation works fine!

Workaround (if any):
The command to extract the waveform is:

ffmpeg -nostats -i input-file.mp4 -lavfi showwavespic=split_channels=0:s=5000x500:scale=lin:colors=black -an -vn -sn -y waveform.png

changing this command to

ffmpeg -nostats -i input-file.mp4 -lavfi showwavespic=split_channels=0:s=5000x500:scale=lin:colors=black -frames:v 1 -an -vn -sn -y waveform.png

will solve the problem.

Logs:

2018-11-26 02:47:12,145 | INFO | (WaveformWorkflowOperationHandler:93) - Start waveform workflow operation for mediapackage 2dc4215b-ddda-492b-b93d-8c046c862f6b
2018-11-26 02:47:12,146 | INFO | (WaveformWorkflowOperationHandler:134) - Creating waveform extraction job for track '32c432f9-4531-48fb-b180-87c656f4a019' in mediapackage '2dc4215b-ddda-492b-b93d-8c046c862f6b'
2018-11-26 02:47:16,907 | DEBUG | (WaveformServiceImpl:380) - Start waveform ffmpeg process: ffmpeg -nostats -i /nfs/videoapuntes/workspace/mediapackage/2dc4215b-ddda-492b-b93d-8c046c862f6b/32c432f9-4531-48fb-b180-87c656f4a019/polimedia_muxed_576.mp4 -lavfi showwavespic=split_channels=0:s=5000x500:scale=lin:colors=black -an -vn -sn -y /nfs/videoapuntes/workspace/mediapackage/2dc4215b-ddda-492b-b93d-8c046c862f6b/32c432f9-4531-48fb-b180-87c656f4a019/polimedia_muxed_576-32c432f9-4531-48fb-b180-87c656f4a019-waveform.png
2018-11-26 02:47:16,907 | INFO | (WaveformServiceImpl:381) - Create waveform image file for track '32c432f9-4531-48fb-b180-87c656f4a019' at /nfs/videoapuntes/workspace/mediapackage/2dc4215b-ddda-492b-b93d-8c046c862f6b/32c432f9-4531-48fb-b180-87c656f4a019/polimedia_muxed_576-32c432f9-4531-48fb-b180-87c656f4a019-waveform.png
2018-11-26 02:47:17,003 | DEBUG | (WaveformServiceImpl:395) - ffmpeg version 3.4.4-1~16.04.york0 Copyright (c) 2000-2018 the FFmpeg developers
2018-11-26 02:47:17,004 | DEBUG | (WaveformServiceImpl:395) - built with gcc 5.4.0 (Ubuntu 5.4.0-6ubuntu1~16.04.10) 20160609
2018-11-26 02:47:17,004 | DEBUG | (WaveformServiceImpl:395) - configuration: --prefix=/usr --extra-version='1~16.04.york0' --toolchain=hardened --libdir=/usr/lib/x86_64-linux-gnu --incdir=/usr/include/x86_64-linux-gnu --enable-gpl --disable-stripping --enable-avresample --enable-avisynth --enable-gnutls --enable-ladspa --enable-libass --enable-libbluray --enable-libbs2b --enable-libcaca --enable-libcdio --enable-libflite --enable-libfontconfig --enable-libfreetype --enable-libfribidi --enable-libgme --enable-libgsm --enable-libmp3lame --enable-libmysofa --enable-libopenjpeg --enable-libopenmpt --enable-libopus --enable-libpulse --enable-librubberband --enable-librsvg --enable-libshine --enable-libsnappy --enable-libsoxr --enable-libspeex --enable-libssh --enable-libtheora --enable-libtwolame --enable-libvorbis --enable-libvpx --enable-libwavpack --enable-libwebp --enable-libx265 --enable-libxml2 --enable-libxvid --enable-libzmq --enable-libzvbi --enable-omx --enable-openal --enable-opengl --enable-sdl2 --enable-libdc1394 --enable-libdrm --enable-libiec61883 --enable-chromaprint --enable-frei0r --enable-libopencv --enable-libx264 --enable-shared
2018-11-26 02:47:17,004 | DEBUG | (WaveformServiceImpl:395) - libavutil 55. 78.100 / 55. 78.100
2018-11-26 02:47:17,004 | DEBUG | (WaveformServiceImpl:395) - libavcodec 57.107.100 / 57.107.100
2018-11-26 02:47:17,004 | DEBUG | (WaveformServiceImpl:395) - libavformat 57. 83.100 / 57. 83.100
2018-11-26 02:47:17,004 | DEBUG | (WaveformServiceImpl:395) - libavdevice 57. 10.100 / 57. 10.100
2018-11-26 02:47:17,004 | DEBUG | (WaveformServiceImpl:395) - libavfilter 6.107.100 / 6.107.100
2018-11-26 02:47:17,004 | DEBUG | (WaveformServiceImpl:395) - libavresample 3. 7. 0 / 3. 7. 0
2018-11-26 02:47:17,004 | DEBUG | (WaveformServiceImpl:395) - libswscale 4. 8.100 / 4. 8.100
2018-11-26 02:47:17,005 | DEBUG | (WaveformServiceImpl:395) - libswresample 2. 9.100 / 2. 9.100
2018-11-26 02:47:17,005 | DEBUG | (WaveformServiceImpl:395) - libpostproc 54. 7.100 / 54. 7.100
2018-11-26 02:47:17,015 | DEBUG | (WaveformServiceImpl:395) - Input #0, mov,mp4,m4a,3gp,3g2,mj2, from '/nfs/videoapuntes/workspace/mediapackage/2dc4215b-ddda-492b-b93d-8c046c862f6b/32c432f9-4531-48fb-b180-87c656f4a019/polimedia_muxed_576.mp4':
2018-11-26 02:47:17,015 | DEBUG | (WaveformServiceImpl:395) - Metadata:
2018-11-26 02:47:17,015 | DEBUG | (WaveformServiceImpl:395) - major_brand : isom
2018-11-26 02:47:17,015 | DEBUG | (WaveformServiceImpl:395) - minor_version : 512
2018-11-26 02:47:17,016 | DEBUG | (WaveformServiceImpl:395) - compatible_brands: isomiso2avc1mp41
2018-11-26 02:47:17,016 | DEBUG | (WaveformServiceImpl:395) - encoder : Lavf57.83.100
2018-11-26 02:47:17,016 | DEBUG | (WaveformServiceImpl:395) - Duration: 00:04:16.16, start: 0.000000, bitrate: 273 kb/s
2018-11-26 02:47:17,016 | DEBUG | (WaveformServiceImpl:395) - Stream #0:0(und): Video: h264 (Constrained Baseline) (avc1 / 0x31637661), yuv420p, 640x360 [SAR 1:1 DAR 16:9], 206 kb/s, 25 fps, 25 tbr, 12800 tbn, 50 tbc (default)
2018-11-26 02:47:17,016 | DEBUG | (WaveformServiceImpl:395) - Metadata:
2018-11-26 02:47:17,016 | DEBUG | (WaveformServiceImpl:395) - handler_name : VideoHandler
2018-11-26 02:47:17,016 | DEBUG | (WaveformServiceImpl:395) - Stream #0:1(und): Audio: aac (LC) (mp4a / 0x6134706D), 22050 Hz, stereo, fltp, 63 kb/s (default)
2018-11-26 02:47:17,016 | DEBUG | (WaveformServiceImpl:395) - Metadata:
2018-11-26 02:47:17,016 | DEBUG | (WaveformServiceImpl:395) - handler_name : SoundHandler
2018-11-26 02:47:17,017 | DEBUG | (WaveformServiceImpl:395) - Stream mapping:
2018-11-26 02:47:17,017 | DEBUG | (WaveformServiceImpl:395) - Stream #0:1 (aac) -> showwavespic
2018-11-26 02:47:17,017 | DEBUG | (WaveformServiceImpl:395) - showwavespic -> Stream #0:0 (png)
2018-11-26 02:47:17,017 | DEBUG | (WaveformServiceImpl:395) - Press [q] to stop, [?] for help
2018-11-26 02:47:17,024 | DEBUG | (WaveformServiceImpl:395) - Output #0, image2, to '/nfs/videoapuntes/workspace/mediapackage/2dc4215b-ddda-492b-b93d-8c046c862f6b/32c432f9-4531-48fb-b180-87c656f4a019/polimedia_muxed_576-32c432f9-4531-48fb-b180-87c656f4a019-waveform.png':
2018-11-26 02:47:17,024 | DEBUG | (WaveformServiceImpl:395) - Metadata:
2018-11-26 02:47:17,024 | DEBUG | (WaveformServiceImpl:395) - major_brand : isom
2018-11-26 02:47:17,025 | DEBUG | (WaveformServiceImpl:395) - minor_version : 512
2018-11-26 02:47:17,025 | DEBUG | (WaveformServiceImpl:395) - compatible_brands: isomiso2avc1mp41
2018-11-26 02:47:17,025 | DEBUG | (WaveformServiceImpl:395) - encoder : Lavf57.83.100
2018-11-26 02:47:17,025 | DEBUG | (WaveformServiceImpl:395) - Stream #0:0: Video: png, rgba, 5000x500 [SAR 1:1 DAR 10:1], q=2-31, 200 kb/s, 4.41 fps, 4.41 tbn, 4.41 tbc (default)
2018-11-26 02:47:17,025 | DEBUG | (WaveformServiceImpl:395) - Metadata:
2018-11-26 02:47:17,025 | DEBUG | (WaveformServiceImpl:395) - encoder : Lavc57.107.100 png
2018-11-26 02:47:17,369 | DEBUG | (WaveformServiceImpl:395) - frame= 1 fps=0.0 q=-0.0 Lsize=N/A time=00:00:00.22 bitrate=N/A speed=0.644x
2018-11-26 02:47:17,370 | DEBUG | (WaveformServiceImpl:395) - video:106kB audio:0kB subtitle:0kB other streams:0kB global headers:0kB muxing overhead: unknown
2018-11-26 02:47:17,440 | INFO | (WaveformServiceImpl:426) - Copied the created waveform to the workspace https://server.opencast:8443/files/collection/waveform/polimedia_muxed_576_32c432f9_4531_48fb_b180_87c656f4a019_waveform.png
2018-11-26 02:47:17,440 | INFO | (WaveformServiceImpl:436) - Deleted local waveform image file at /nfs/videoapuntes/workspace/mediapackage/2dc4215b-ddda-492b-b93d-8c046c862f6b/32c432f9-4531-48fb-b180-87c656f4a019/polimedia_muxed_576-32c432f9-4531-48fb-b180-87c656f4a019-waveform.png
2018-11-26 02:47:17,517 | INFO | (ServiceRegistryJpaImpl:2526) - State reset to NORMAL for current service org.opencastproject.waveform on host https://server.opencast:8443
2018-11-26 02:47:22,261 | INFO | (WaveformWorkflowOperationHandler:185) - Waveform workflow operation for mediapackage 2dc4215b-ddda-492b-b93d-8c046c862f6b completed
2018-11-26 02:47:27,423 | INFO | (ImageWorkflowOperationHandler$Extractor$1:197) - Extracting images from https://server.opencast:8443/files/mediapackage/2dc4215b-ddda-492b-b93d-8c046c862f6b/8d6a2ceb-316c-4baa-9325-f6614112295f/polimedia_muxed_576.mp4 at position MediaPosition(Percentage, 50.0)
2018-11-26 02:47:32,346 | INFO | (ComposerServiceImpl:1127) - creating an image using video track 475e48c1-a72c-4bb3-b261-bab8bd92e2a8
2018-11-26 02:47:32,348 | INFO | (EncoderEngine:207) - Executing encoding command: [ffmpeg, -nostats, -ss, 128.08000, -i, /nfs/videoapuntes/workspace/mediapackage/2dc4215b-ddda-492b-b93d-8c046c862f6b/8d6a2ceb-316c-4baa-9325-f6614112295f/polimedia_muxed_576.mp4, -r, 1, -frames:v, 1, -filter:v, yadif,scale=320:-1, /nfs/videoapuntes/workspace/mediapackage/2dc4215b-ddda-492b-b93d-8c046c862f6b/8d6a2ceb-316c-4baa-9325-f6614112295f/polimedia_muxed_576_f3421bb4-b9ee-46a4-81d3-40f899abe51b-preview.jpg]
2018-11-26 02:47:32,455 | INFO | (EncoderEngine:461) - [mov,mp4,m4a,3gp,3g2,mj2 @ 0x5630f21a2020] Invalid SampleDelta -5604 in STTS, at 1 st:1
2018-11-26 02:47:32,467 | INFO | (EncoderEngine:461) - Press [q] to stop, [?] for help
2018-11-26 02:47:32,483 | INFO | (EncoderEngine:461) - [swscaler @ 0x5630f2505fe0] deprecated pixel format used, make sure you did set range correctly
2018-11-26 02:47:32,484 | INFO | (EncoderEngine:447) - Identified output file /nfs/videoapuntes/workspace/mediapackage/2dc4215b-ddda-492b-b93d-8c046c862f6b/8d6a2ceb-316c-4baa-9325-f6614112295f/polimedia_muxed_576_f3421bb4-b9ee-46a4-81d3-40f899abe51b-preview.jpg
2018-11-26 02:47:32,484 | INFO | (EncoderEngine:461) - cpb: bitrate max/min/avg: 0/0/200000 buffer size: 0 vbv_delay: -1
2018-11-26 02:47:32,613 | INFO | (EncoderEngine:231) - Tracks {video=/nfs/videoapuntes/workspace/mediapackage/2dc4215b-ddda-492b-b93d-8c046c862f6b/8d6a2ceb-316c-4baa-9325-f6614112295f/polimedia_muxed_576.mp4} successfully encoded using profile 'editor.tracks.preview'
2018-11-26 02:47:32,666 | INFO | (ComposerServiceImpl:1560) - Deleted local copy of encoding file at /nfs/videoapuntes/workspace/mediapackage/2dc4215b-ddda-492b-b93d-8c046c862f6b/8d6a2ceb-316c-4baa-9325-f6614112295f/polimedia_muxed_576_f3421bb4-b9ee-46a4-81d3-40f899abe51b-preview.jpg
2018-11-26 02:47:42,853 | INFO | (WaveformWorkflowOperationHandler:93) - Start waveform workflow operation for mediapackage 2dc4215b-ddda-492b-b93d-8c046c862f6b
2018-11-26 02:47:42,856 | INFO | (WaveformWorkflowOperationHandler:134) - Creating waveform extraction job for track '475e48c1-a72c-4bb3-b261-bab8bd92e2a8' in mediapackage '2dc4215b-ddda-492b-b93d-8c046c862f6b'
2018-11-26 02:47:47,800 | DEBUG | (WaveformServiceImpl:380) - Start waveform ffmpeg process: ffmpeg -nostats -i /nfs/videoapuntes/workspace/mediapackage/2dc4215b-ddda-492b-b93d-8c046c862f6b/8d6a2ceb-316c-4baa-9325-f6614112295f/polimedia_muxed_576.mp4 -lavfi showwavespic=split_channels=0:s=5000x500:scale=lin:colors=black -an -vn -sn -y /nfs/videoapuntes/workspace/mediapackage/2dc4215b-ddda-492b-b93d-8c046c862f6b/8d6a2ceb-316c-4baa-9325-f6614112295f/polimedia_muxed_576-475e48c1-a72c-4bb3-b261-bab8bd92e2a8-waveform.png
2018-11-26 02:47:47,801 | INFO | (WaveformServiceImpl:381) - Create waveform image file for track '475e48c1-a72c-4bb3-b261-bab8bd92e2a8' at /nfs/videoapuntes/workspace/mediapackage/2dc4215b-ddda-492b-b93d-8c046c862f6b/8d6a2ceb-316c-4baa-9325-f6614112295f/polimedia_muxed_576-475e48c1-a72c-4bb3-b261-bab8bd92e2a8-waveform.png
2018-11-26 02:47:47,897 | DEBUG | (WaveformServiceImpl:395) - ffmpeg version 3.4.4-1~16.04.york0 Copyright (c) 2000-2018 the FFmpeg developers
2018-11-26 02:47:47,898 | DEBUG | (WaveformServiceImpl:395) - built with gcc 5.4.0 (Ubuntu 5.4.0-6ubuntu1~16.04.10) 20160609
2018-11-26 02:47:47,898 | DEBUG | (WaveformServiceImpl:395) - configuration: --prefix=/usr --extra-version='1~16.04.york0' --toolchain=hardened --libdir=/usr/lib/x86_64-linux-gnu --incdir=/usr/include/x86_64-linux-gnu --enable-gpl --disable-stripping --enable-avresample --enable-avisynth --enable-gnutls --enable-ladspa --enable-libass --enable-libbluray --enable-libbs2b --enable-libcaca --enable-libcdio --enable-libflite --enable-libfontconfig --enable-libfreetype --enable-libfribidi --enable-libgme --enable-libgsm --enable-libmp3lame --enable-libmysofa --enable-libopenjpeg --enable-libopenmpt --enable-libopus --enable-libpulse --enable-librubberband --enable-librsvg --enable-libshine --enable-libsnappy --enable-libsoxr --enable-libspeex --enable-libssh --enable-libtheora --enable-libtwolame --enable-libvorbis --enable-libvpx --enable-libwavpack --enable-libwebp --enable-libx265 --enable-libxml2 --enable-libxvid --enable-libzmq --enable-libzvbi --enable-omx --enable-openal --enable-opengl --enable-sdl2 --enable-libdc1394 --enable-libdrm --enable-libiec61883 --enable-chromaprint --enable-frei0r --enable-libopencv --enable-libx264 --enable-shared
2018-11-26 02:47:47,898 | DEBUG | (WaveformServiceImpl:395) - libavutil 55. 78.100 / 55. 78.100
2018-11-26 02:47:47,898 | DEBUG | (WaveformServiceImpl:395) - libavcodec 57.107.100 / 57.107.100
2018-11-26 02:47:47,898 | DEBUG | (WaveformServiceImpl:395) - libavformat 57. 83.100 / 57. 83.100
2018-11-26 02:47:47,898 | DEBUG | (WaveformServiceImpl:395) - libavdevice 57. 10.100 / 57. 10.100
2018-11-26 02:47:47,898 | DEBUG | (WaveformServiceImpl:395) - libavfilter 6.107.100 / 6.107.100
2018-11-26 02:47:47,898 | DEBUG | (WaveformServiceImpl:395) - libavresample 3. 7. 0 / 3. 7. 0
2018-11-26 02:47:47,898 | DEBUG | (WaveformServiceImpl:395) - libswscale 4. 8.100 / 4. 8.100
2018-11-26 02:47:47,899 | DEBUG | (WaveformServiceImpl:395) - libswresample 2. 9.100 / 2. 9.100
2018-11-26 02:47:47,899 | DEBUG | (WaveformServiceImpl:395) - libpostproc 54. 7.100 / 54. 7.100
2018-11-26 02:47:47,902 | DEBUG | (WaveformServiceImpl:395) - [mov,mp4,m4a,3gp,3g2,mj2 @ 0x5636370d21a0] Invalid SampleDelta -5604 in STTS, at 1 st:1
2018-11-26 02:47:47,912 | DEBUG | (WaveformServiceImpl:395) - Input #0, mov,mp4,m4a,3gp,3g2,mj2, from '/nfs/videoapuntes/workspace/mediapackage/2dc4215b-ddda-492b-b93d-8c046c862f6b/8d6a2ceb-316c-4baa-9325-f6614112295f/polimedia_muxed_576.mp4':
2018-11-26 02:47:47,912 | DEBUG | (WaveformServiceImpl:395) - Metadata:
2018-11-26 02:47:47,913 | DEBUG | (WaveformServiceImpl:395) - major_brand : isom
2018-11-26 02:47:47,913 | DEBUG | (WaveformServiceImpl:395) - minor_version : 512
2018-11-26 02:47:47,913 | DEBUG | (WaveformServiceImpl:395) - compatible_brands: isomiso2avc1mp41
2018-11-26 02:47:47,913 | DEBUG | (WaveformServiceImpl:395) - creation_time : 2015-06-30T11:43:31.000000Z
2018-11-26 02:47:47,913 | DEBUG | (WaveformServiceImpl:395) - encoder : Lavf54.20.4
2018-11-26 02:47:47,913 | DEBUG | (WaveformServiceImpl:395) - Duration: 00:04:16.16, start: 0.000000, bitrate: 526 kb/s
2018-11-26 02:47:47,913 | DEBUG | (WaveformServiceImpl:395) - Stream #0:0(und): Video: h264 (High) (avc1 / 0x31637661), yuv420p, 1024x576 [SAR 1:1 DAR 16:9], 354 kb/s, 25 fps, 25 tbr, 25 tbn, 50 tbc (default)
2018-11-26 02:47:47,913 | DEBUG | (WaveformServiceImpl:395) - Metadata:
2018-11-26 02:47:47,913 | DEBUG | (WaveformServiceImpl:395) - creation_time : 2015-06-30T11:43:31.000000Z
2018-11-26 02:47:47,913 | DEBUG | (WaveformServiceImpl:395) - handler_name : VideoHandler
2018-11-26 02:47:47,913 | DEBUG | (WaveformServiceImpl:395) - Stream #0:1(und): Audio: aac (LC) (mp4a / 0x6134706D), 44100 Hz, stereo, fltp, 165 kb/s (default)
2018-11-26 02:47:47,913 | DEBUG | (WaveformServiceImpl:395) - Metadata:
2018-11-26 02:47:47,913 | DEBUG | (WaveformServiceImpl:395) - creation_time : 2015-06-30T11:43:31.000000Z
2018-11-26 02:47:47,913 | DEBUG | (WaveformServiceImpl:395) - handler_name : SoundHandler
2018-11-26 02:47:47,915 | DEBUG | (WaveformServiceImpl:395) - Stream mapping:
2018-11-26 02:47:47,915 | DEBUG | (WaveformServiceImpl:395) - Stream #0:1 (aac) -> showwavespic
2018-11-26 02:47:47,916 | DEBUG | (WaveformServiceImpl:395) - showwavespic -> Stream #0:0 (png)
2018-11-26 02:47:47,916 | DEBUG | (WaveformServiceImpl:395) - Press [q] to stop, [?] for help
2018-11-26 02:47:47,929 | DEBUG | (WaveformServiceImpl:395) - Output #0, image2, to '/nfs/videoapuntes/workspace/mediapackage/2dc4215b-ddda-492b-b93d-8c046c862f6b/8d6a2ceb-316c-4baa-9325-f6614112295f/polimedia_muxed_576-475e48c1-a72c-4bb3-b261-bab8bd92e2a8-waveform.png':
2018-11-26 02:47:47,929 | DEBUG | (WaveformServiceImpl:395) - Metadata:
2018-11-26 02:47:47,929 | DEBUG | (WaveformServiceImpl:395) - major_brand : isom
2018-11-26 02:47:47,929 | DEBUG | (WaveformServiceImpl:395) - minor_version : 512
2018-11-26 02:47:47,929 | DEBUG | (WaveformServiceImpl:395) - compatible_brands: isomiso2avc1mp41
2018-11-26 02:47:47,929 | DEBUG | (WaveformServiceImpl:395) - encoder : Lavf57.83.100
2018-11-26 02:47:47,929 | DEBUG | (WaveformServiceImpl:395) - Stream #0:0: Video: png, rgba, 5000x500 [SAR 1:1 DAR 10:1], q=2-31, 200 kb/s, 8.82 fps, 8.82 tbn, 8.82 tbc (default)
2018-11-26 02:47:47,929 | DEBUG | (WaveformServiceImpl:395) - Metadata:
2018-11-26 02:47:47,929 | DEBUG | (WaveformServiceImpl:395) - encoder : Lavc57.107.100 png
2018-11-26 02:47:48,484 | DEBUG | (WaveformServiceImpl:395) - [image2 @ 0x563637106740] Could not get frame filename number 2 from pattern '/nfs/videoapuntes/workspace/mediapackage/2dc4215b-ddda-492b-b93d-8c046c862f6b/8d6a2ceb-316c-4baa-9325-f6614112295f/polimedia_muxed_576-475e48c1-a72c-4bb3-b261-bab8bd92e2a8-waveform.png' (either set updatefirst or use a pattern like %03d within the filename pattern)
2018-11-26 02:47:48,485 | DEBUG | (WaveformServiceImpl:395) - av_interleaved_write_frame(): Invalid argument
2018-11-26 02:47:48,485 | DEBUG | (WaveformServiceImpl:395) - frame= 2 fps=0.0 q=-0.0 Lsize=N/A time=00:00:00.22 bitrate=N/A dup=1 drop=0 speed=0.399x
2018-11-26 02:47:48,485 | DEBUG | (WaveformServiceImpl:395) - video:216kB audio:0kB subtitle:0kB other streams:0kB global headers:0kB muxing overhead: unknown
2018-11-26 02:47:48,503 | DEBUG | (WaveformServiceImpl:395) - Conversion failed!
2018-11-26 02:47:48,582 | INFO | (ServiceRegistryJpaImpl:2504) - State set to WARNING for current service org.opencastproject.waveform on host https://server.opencast:8443
2018-11-26 02:47:48,734 | ERROR | (AbstractJobProducer$JobRunner:344) - Error handling operation 'Waveform': org.opencastproject.serviceregistry.api.ServiceRegistryException: Error handling operation 'Waveform'
at org.opencastproject.waveform.ffmpeg.WaveformServiceImpl.process(WaveformServiceImpl.java:340)
at org.opencastproject.job.api.AbstractJobProducer$JobRunner.call(AbstractJobProducer.java:314)
at org.opencastproject.job.api.AbstractJobProducer$JobRunner.call(AbstractJobProducer.java:273)
at java.util.concurrent.FutureTask.run(FutureTask.java:266)
at java.util.concurrent.ThreadPoolExecutor.runWorker(ThreadPoolExecutor.java:1149)
at java.util.concurrent.ThreadPoolExecutor$Worker.run(ThreadPoolExecutor.java:624)
at java.lang.Thread.run(Thread.java:748)
Caused by: org.opencastproject.waveform.api.WaveformServiceException: The encoder process exited abnormally with exit code 1
at org.opencastproject.waveform.ffmpeg.WaveformServiceImpl.extractWaveform(WaveformServiceImpl.java:417)
at org.opencastproject.waveform.ffmpeg.WaveformServiceImpl.process(WaveformServiceImpl.java:332)
... 6 more

2018-11-26 02:47:52,939 | ERROR | (WorkflowOperationWorker:182) - Workflow operation 'operation:'waveform', position:18, state:'FAILED'' failed
org.opencastproject.workflow.api.WorkflowOperationException: Waveform extraction jobs for media package '2dc4215b-ddda-492b-b93d-8c046c862f6b' have not completed successfully
at org.opencastproject.workflow.handler.waveform.WaveformWorkflowOperationHandler.start(WaveformWorkflowOperationHandler.java:145)[192:opencast-waveform-workflowoperation:6.0.0.SNAPSHOT]
at org.opencastproject.workflow.impl.WorkflowOperationWorker.start(WorkflowOperationWorker.java:233)[194:opencast-workflow-service-impl:6.0.0.SNAPSHOT]
at org.opencastproject.workflow.impl.WorkflowOperationWorker.execute(WorkflowOperationWorker.java:155)[194:opencast-workflow-service-impl:6.0.0.SNAPSHOT]
at org.opencastproject.workflow.impl.WorkflowServiceImpl.runWorkflowOperation(WorkflowServiceImpl.java:892)[194:opencast-workflow-service-impl:6.0.0.SNAPSHOT]
at org.opencastproject.workflow.impl.WorkflowServiceImpl.process(WorkflowServiceImpl.java:1925)[194:opencast-workflow-service-impl:6.0.0.SNAPSHOT]
at org.opencastproject.workflow.impl.WorkflowServiceImpl$JobRunner.call(WorkflowServiceImpl.java:2355)[194:opencast-workflow-service-impl:6.0.0.SNAPSHOT]
at org.opencastproject.workflow.impl.WorkflowServiceImpl$JobRunner.call(WorkflowServiceImpl.java:2321)[194:opencast-workflow-service-impl:6.0.0.SNAPSHOT]
at java.util.concurrent.FutureTask.run(FutureTask.java:266)[:1.8.0_181]
at java.util.concurrent.ThreadPoolExecutor.runWorker(ThreadPoolExecutor.java:1149)[:1.8.0_181]
at java.util.concurrent.ThreadPoolExecutor$Worker.run(ThreadPoolExecutor.java:624)[:1.8.0_181]
at java.lang.Thread.run(Thread.java:748)[:1.8.0_181]

Status

Assignee

Miguel Escriva

Reporter

Miguel Escriva

Severity

Incorrectly Functioning With Workaround

Tags (folksonomy)

None

Components

Affects versions

6.0

Priority

Major
Configure